MENU

KATEGORIE

TOPLISTA

Torrent: Gwiezdne Wojny Wojny Klonow - Star Wars The Clone Wars 2008- Sezon 05 [BRRip.480p.XviD-LTN] [Dubbing PL]
 Gwiezdne Wojny Wojny Klonow - Star Wars The Clone Wars 2008- Sezon 05 [BRRip.480p.XviD-LTN] [Dubbing PL]
Dodał: umezrorv
Data: 22-07-2021
Rozmiar: 5.32 GB
Seed: 1
Peer: 0
Pobierz torrent

  • *
Głosów: 0
Kategoria: TV / SERIALE -> ZAGRANICZNE
Zaakceptował: nie wymagał akceptacji
Liczba pobrań: 3
Liczba komentarzy: 0
Ostatnia aktualizacja: 0000-00-00 00:00:00
OPIS:
..::(Info)::..

Produkcja: USA
Gatunek: Animacja, Przygodowy, Sci-Fi
Premiera: Stany Zjednoczone 3 październik 2008
Polska 4 stycznia 2009
Muzyka: Kevin Kiner
Liczba odcinków 133
Liczba serii 7

..::(Opis)::..

Wojny klonów.Wojny klonów rozprzestrzeniły się na całą galaktykę. Bohaterscy rycerze Jedi walczą, by utrzymać porządek i przywrócić pokój.

..::(O Filmie)::..

https://www.filmweb.pl/serial/Gwiezdne+Wojny%3A+Wojny+Klon%C3%B3w-2008-281791
https://www.imdb.com/title/tt0458290/
..::(Obsada)::..

? Tomasz Bednarek .... Anakin Skywalker
? Agnieszka Kudelska .... Ahsoka Tano
? Jarosław Domin .... Obi-Wan Kenobi
? Jerzy Dominik .... Żołnierze-klony
? Zbigniew Konopka .... Dooku
? Mariusz Czajka .... Yoda
? Grzegorz Wons .... Palpatine
? Jacek Kopczyński .... Grievous, droidy bojowe

..::(Dane Techniczne)::..

Format                                   : AVI
Format/INFO                              : Audio Video Interleave
Format profile                           : OpenDML
Format settings                          : rec
File size                                : 271 MiB
Duration                                 : 22 min 19 s
Overall bit rate                         : 1 698 kb/s
Writing application                      : AVI-Mux GUI 1.17.8.3, Feb 16 201019:42:50

Video
ID                                       : 0
Format                                   : MPEG-4 Visual
Format profile                           : Advanced Simple@L5
Format settings                          : BVOP1
Format settings, BVOP                    : 1
Format settings, QPel                    : No
Format settings, GMC                     : No warppoints
Format settings, Matrix                  : Default (H.263)
Codec ID                                 : XVID
Codec ID/Hint                            : XviD
Duration                                 : 22 min 19 s
Bit rate                                 : 1 500 kb/s
Width                                    : 720 pixels
Height                                   : 304 pixels
Display aspect ratio                     : 2.35:1
Frame rate                               : 23.976 (24000/1001) FPS
Color space                              : YUV
Chroma subsampling                       : 4:2:0
Bit depth                                : 8 bits
Scan type                                : Progressive
Compression mode                         : Lossy
Bits/(Pixel*Frame)                       : 0.286
Stream size                              : 240 MiB (88%)
Writing library                          : XviD 67

Audio
ID                                       : 1
Format                                   : AC-3
Format/INFO                              : Audio Coding 3
Commercial name                          : Dolby Digital
Codec ID                                 : 2000
Duration                                 : 22 min 19 s
Bit rate mode                            : Constant
Bit rate                                 : 192 kb/s
Channel(s)                               : 2 channels
Channel layout                           : L R
Sampling rate                            : 48.0 kHz
Frame rate                               : 31.250 FPS (1536 SPF)
Compression mode                         : Lossy
Stream size                              : 30.7 MiB (11%)
Alignment                                : Aligned on interleaves
Interleave, duration                     : 64  ms (1.54 video frames)
Interleave, preload duration             : 192  ms
Title                                    : WK.S05E01.PLDUB.BluRay.1080p.x264-LTN - [0] Polish
Service kind                             : Complete Main
DETALE TORRENTA:[ Pokaż/Ukryj ]

Podobne pliki
Gwiezdne Wojny Wojny Klonow - Star Wars The Clone Wars 2008- Sezon 01 [BRRip.480p.XviD-LTN] [Dubbing PL]
Gwiezdne Wojny Wojny Klonow - Star Wars The Clone Wars 2008- Sezon 01 [BRRip.480p.XviD-LTN] [Dubbing PL]
Gwiezdne Wojny Wojny Klonow - Star Wars The Clone Wars 2008- Sezon 02 [BRRip.480p.XviD-LTN] [Dubbing PL]
 Gwiezdne Wojny Wojny Klonow - Star Wars The Clone Wars 2008- Sezon 02 [BRRip.480p.XviD-LTN] [Dubbing PL]
Gwiezdne Wojny Wojny Klonow - Star Wars The Clone Wars 2008- Sezon 03 [BRRip.480p.XviD-LTN] [Dubbing PL]
 Gwiezdne Wojny Wojny Klonow - Star Wars The Clone Wars 2008- Sezon 03 [BRRip.480p.XviD-LTN] [Dubbing PL]
Gwiezdne Wojny Wojny Klonow - Star Wars The Clone Wars 2008- Sezon 04 [BRRip.480p.XviD-LTN][Dubbing PL]
 Gwiezdne Wojny Wojny Klonow - Star Wars The Clone Wars 2008- Sezon 04 [BRRip.480p.XviD-LTN][Dubbing PL]
Gwiezdne wojny Wojny klonów - Star Wars The Clone Wars 2008- [S01-S07] [480p.BRRip.WEB.DD5.1.XviD-IND-H3Q] [Dubbing PL] [Alusia]
Gwiezdne wojny Wojny klonów - Star Wars The Clone Wars 2008- [S01-S07] [480p.BRRip.WEB.DD5.1.XviD-IND-H3Q] [Dubbing PL] [Alusia]
Gwiezdne Wojny: Wojny klonów - Star Wars: The Clone Wars *2008* [1080p] [BRRip] [AC-3] [XviD] [Dubbing PL] [DYZIO]
Gwiezdne Wojny: Wojny klonów - Star Wars: The Clone Wars *2008* [1080p] [BRRip] [AC-3] [XviD] [Dubbing PL] [DYZIO]
Gwiezdne Wojny: Wojny Klonów - Star Wars: The Clone Wars (2008) [DVDRip.XviD] [Dubbing PL]
Gwiezdne Wojny: Wojny Klonów - Star Wars: The Clone Wars (2008) [DVDRip.XviD] [Dubbing PL]
Gwiezdne Wojny Wojny Klonów - Star Wars The Clone Wars *2008* [DVDRiP.XviD] [Dubbing PL]
Gwiezdne Wojny Wojny Klonów - Star Wars The Clone Wars *2008* [DVDRiP.XviD] [Dubbing PL]

Komentarze

Brak komentarzy

Zaloguj się aby skomentować