MENU

KATEGORIE

TOPLISTA

Torrent: GWIEZDNE WOJNY: WOJNY KLONÓW - STAR WARS: THE CLONE WARS [S07] [1080P.WEB.X264.DDP5.1] [Multi Napisy PL] [ENG-DUBBING PL]
GWIEZDNE WOJNY: WOJNY KLONÓW - STAR WARS: THE CLONE WARS [S07] [1080P.WEB.X264.DDP5.1] [Multi Napisy PL] [ENG-DUBBING PL]
Dodał: umezrorv
Data: 22-07-2021
Rozmiar: 17.46 GB
Seed: 1
Peer: 0
Pobierz torrent

  • *
Głosów: 0
Kategoria: TV / SERIALE -> ZAGRANICZNE
Zaakceptował: nie wymagał akceptacji
Liczba pobrań: 3
Liczba komentarzy: 0
Ostatnia aktualizacja: 0000-00-00 00:00:00
OPIS:
..::(Info)::..

Produkcja: USA
Gatunek: Animacja, Przygodowy, Sci-Fi
Premiera: Stany Zjednoczone 3 październik 2008
Polska 4 stycznia 2009
Muzyka: Kevin Kiner
Liczba odcinków 133
Liczba serii 7

..::(Opis)::..

Akcja sezonu rozgrywa po odejsciu Asoki z zakonu Jedi oraz pokazuje wykonanie rozkazu 66

..::(O Filmie)::..

https://www.filmweb.pl/serial/Gwiezdne+Wojny%3A+Wojny+Klon%C3%B3w-2008-281791
https://www.imdb.com/title/tt0458290/

..::(Obsada)::..
★ Tomasz Bednarek .... Anakin Skywalker
★ Agnieszka Kudelska .... Ahsoka Tano
★ Jarosław Domin .... Obi-Wan Kenobi
★ Jerzy Dominik .... Żołnierze-klony
★ Zbigniew Konopka .... Dooku
★ Mariusz Czajka .... Yoda
★ Grzegorz Wons .... Palpatine
★ Jacek Kopczyński .... Grievous, droidy bojowe

..::(Dane Techniczne)::..

Format                                   : PNG
Format/INFO                              : Portable Network Graphic
Compression                              : Deflate
Width                                    : 1 198 pixels
Height                                   : 142 pixels
Color space                              : RGBA
Bit depth                                : 8 bits
Compression mode                         : Lossless
Stream size                              : 203 KiB (100%)

General
Unique ID                                : 310209728541533323657306952639687931479 (0xE9603874400DF78BF08FD5ABA3FBB657)
Complete name                            : D:Nowy folder (2)[FileTracker.pl] Gwiezdne wojny Wojny klonów - Star Wars The Clone Wars _2008-2014_ [S07] [1080p.WEB.DDP5.1.H264-Ralf][MULTi]Star.Wars.The.Clone.Wars.S07E01 [1080p.WEB.DDP5.1.H264-Ralf][MULTi][Alusia].mkv
Format                                   : Matroska
Format version                           : Version 4
File size                                : 1.50 GiB
Duration                                 : 23 min 51 s
Overall bit rate mode                    : Variable
Overall bit rate                         : 9 002 kb/s
Encoded date                             : UTC 2020-05-03 17:23:42
Writing application                      : mkvmerge v45.0.0 ('Heaven in Pennies') 64-bit
Writing library                          : libebml v1.3.10 + libmatroska v1.5.2

Video
ID                                       : 1
Format                                   : AVC
Format/INFO                              : Advanced Video Codec
Format profile                           : High@L4
Format settings                          : CABAC / 4 Ref Frames
Format settings, CABAC                   : Yes
Format settings, Reference frames        : 4 frames
Codec ID                                 : V_MPEG4/ISO/AVC
Duration                                 : 23 min 51 s
Bit rate mode                            : Variable
Bit rate                                 : 8 488 kb/s
Maximum bit rate                         : 12.7 Mb/s
Width                                    : 1 920 pixels
Height                                   : 1 080 pixels
Display aspect ratio                     : 16:9
Frame rate mode                          : Constant
Frame rate                               : 23.976 (24000/1001) FPS
Color space                              : YUV
Chroma subsampling                       : 4:2:0
Bit depth                                : 8 bits
Scan type                                : Progressive
Bits/(Pixel*Frame)                       : 0.171
Stream size                              : 1.41 GiB (94%)
Language                                 : English
Default                                  : Yes
Forced                                   : No
Color range                              : Limited
Color primaries                          : BT.709
Transfer characteristics                 : BT.709
Matrix coefficients                      : BT.709

Audio #1
ID                                       : 6
Format                                   : E-AC-3
Format/INFO                              : Enhanced AC-3
Commercial name                          : Dolby Digital Plus
Codec ID                                 : A_EAC3
Duration                                 : 23 min 51 s
Bit rate mode                            : Constant
Bit rate                                 : 256 kb/s
Channel(s)                               : 6 channels
Channel layout                           : L R C LFE Ls Rs
Sampling rate                            : 48.0 kHz
Frame rate                               : 31.250 FPS (1536 SPF)
Compression mode                         : Lossy
Stream size                              : 43.7 MiB (3%)
Language                                 : English
Service kind                             : Complete Main
Default                                  : No
Forced                                   : No

Audio #2
ID                                       : 7
Format                                   : E-AC-3
Format/INFO                              : Enhanced AC-3
Commercial name                          : Dolby Digital Plus
Codec ID                                 : A_EAC3
Duration                                 : 23 min 51 s
Bit rate mode                            : Constant
Bit rate                                 : 256 kb/s
Channel(s)                               : 6 channels
Channel layout                           : L R C LFE Ls Rs
Sampling rate                            : 48.0 kHz
Frame rate                               : 31.250 FPS (1536 SPF)
Compression mode                         : Lossy
Stream size                              : 43.7 MiB (3%)
Language                                 : Polish
Service kind                             : Complete Main
Default                                  : Yes
Forced                                   : No

Text #1
ID                                       : 2
Format                                   : UTF-8
Codec ID                                 : S_TEXT/UTF8
Codec ID/INFO                            : UTF-8 Plain Text
Duration                                 : 22 min 44 s
Bit rate                                 : 59 b/s
Count of elements                        : 306
Stream size                              : 9.94 KiB (0%)
Title                                    : English (SDH)
Language                                 : English
Default                                  : No
Forced                                   : No

Text #2
ID                                       : 3
Format                                   : UTF-8
Codec ID                                 : S_TEXT/UTF8
Codec ID/INFO                            : UTF-8 Plain Text
Duration                                 : 23 min 44 s
Bit rate                                 : 49 b/s
Count of elements                        : 283
Stream size                              : 8.58 KiB (0%)
Title                                    : Spanish (Latin American)
Language                                 : Spanish
Default                                  : No
Forced                                   : No

Text #3
ID                                       : 4
Format                                   : UTF-8
Codec ID                                 : S_TEXT/UTF8
Codec ID/INFO                            : UTF-8 Plain Text
Duration                                 : 23 min 35 s
Bit rate                                 : 53 b/s
Count of elements                        : 282
Stream size                              : 9.25 KiB (0%)
Title                                    : French
Language                                 : French
Default                                  : No
Forced                                   : No

Text #4
ID                                       : 5
Format                                   : UTF-8
Codec ID                                 : S_TEXT/UTF8
Codec ID/INFO                            : UTF-8 Plain Text
Duration                                 : 23 min 35 s
Bit rate                                 : 49 b/s
Count of elements                        : 281
Stream size                              : 8.63 KiB (0%)
Title                                    : Dutch
Language                                 : Dutch
Default                                  : No
Forced                                   : No

Text #5
ID                                       : 8
Format                                   : UTF-8
Codec ID                                 : S_TEXT/UTF8
Codec ID/INFO                            : UTF-8 Plain Text
Duration                                 : 23 min 44 s
Bit rate                                 : 51 b/s
Count of elements                        : 283
Stream size                              : 8.90 KiB (0%)
Language                                 : Polish
Default                                  : Yes
Forced                                   : No


Z SEZONEM 6
MAM PROBLEM NIESTETY KILKA PLIKOW NIEDZIALA POPRAWNIE
WSTAWIE RESZTE A S06 W POZNIEJSZYM TERMINIE
DETALE TORRENTA:[ Pokaż/Ukryj ]

Podobne pliki
GWIEZDNE WOJNY: WOJNY KLONÓW - STAR WARS: THE CLONE WARS [S07E12] [1080P.WEB.X264.DDP5.1] [Multi Napisy PL] [ENG-DUBBING PL]
 GWIEZDNE WOJNY: WOJNY KLONÓW - STAR WARS: THE CLONE WARS [S07E12] [1080P.WEB.X264.DDP5.1] [Multi Napisy PL] [ENG-DUBBING PL]
Gwiezdne wojny Wojny klonów - Star Wars The Clone Wars *2008* [10Bit] [1080p.BluRay.H265.AC3.5.1-NitroTeam] [Napisy ENG-PL] [ENG-Dubbing PL]
Gwiezdne wojny Wojny klonów - Star Wars The Clone Wars *2008* [10Bit] [1080p.BluRay.H265.AC3.5.1-NitroTeam] [Napisy ENG-PL] [ENG-Dubbing PL]
Gwiezdne Wojny: Wojny klonów - Star Wars: The Clone Wars *2008* [1080p] [BRRip] [AC-3] [XviD] [Dubbing PL] [DYZIO]
Gwiezdne Wojny: Wojny klonów - Star Wars: The Clone Wars *2008* [1080p] [BRRip] [AC-3] [XviD] [Dubbing PL] [DYZIO]
Gwiezdne wojny Wojny klonów - Star Wars The Clone Wars 2008- [S01-S07] [480p.BRRip.WEB.DD5.1.XviD-IND-H3Q] [Dubbing PL] [Alusia]
Gwiezdne wojny Wojny klonów - Star Wars The Clone Wars 2008- [S01-S07] [480p.BRRip.WEB.DD5.1.XviD-IND-H3Q] [Dubbing PL] [Alusia]
Gwiezdne Wojny: Wojny Klonów - Star Wars: The Clone Wars *2008* [DVDRiP.RMVB] [Dubbing PL]
Gwiezdne Wojny: Wojny Klonów - Star Wars: The Clone Wars *2008* [DVDRiP.RMVB] [Dubbing PL]
Gwiezdne Wojny: Wojny Klonów - Star Wars: The Clone Wars *2008*[DVDrip.RMVB] [Dubbing PL]
Gwiezdne Wojny: Wojny Klonów - Star Wars: The Clone Wars *2008*[DVDrip.RMVB] [Dubbing PL]
Gwiezdne Wojny Wojny Klonów - Star Wars The Clone Wars *2008* [DVDRiP.XviD] [Dubbing PL]
Gwiezdne Wojny Wojny Klonów - Star Wars The Clone Wars *2008* [DVDRiP.XviD] [Dubbing PL]
Gwiezdne Wojny: Wojny Klonów - Star Wars: The Clone Wars (2008) [DVDRip.XviD] [Dubbing PL]
Gwiezdne Wojny: Wojny Klonów - Star Wars: The Clone Wars (2008) [DVDRip.XviD] [Dubbing PL]

Komentarze

Brak komentarzy

Zaloguj się aby skomentować